Skip to main content

Wayne Horvitz Live at Obeca Li on 1998-06-06

Audio Preview

etree
Wayne Horvitz Live at Obeca Li on 1998-06-06




300
June 6, 1998
Obeca Li
New York City NY

Wayne Horvitz - keyboards
Briggan Krauss - saxophone
Kenny Wolleson - drums

*** THIS IS A 16-BIT FILESET INTENDED FOR AUDIO CD ***

SOURCE: Core sound binaurals (omni, on stand, 7') > Sony SBM-1 > Sony TCD-D8 > Zefiro Acoustics ZA2 (dos capture) > Sound Forge (tracking, fades) > Goldenhawk CDR-win > audio CD
PROCESSING: Sony Optiarc 7240S DVD-RW > Exact Audio Copy V1.0 beta 2 (logs included) > soundforge 10.0 (tracking, fades) > flac 1.2.1b

DISK ONE

01
02
03
04


Collection WayneHorvitz
Band/Artist Wayne Horvitz
Venue Obeca Li
Location New York City NY

Source Core sound binaurals (omni, on stand, 7') > Sony SBM-1 > Sony TCD-D8
Lineage Zefiro Acoustics ZA2 (dos capture) > Sound Forge (tracking, fades) > Goldenhawk CDR-win > audio CD PROCESSING: Sony Optiarc 7240S DVD-RW > Exact Audio Copy V1.0 beta 2 (logs included) > soundforge 10.0 (tracking, fades) > flac 1.2.1b
Taped by Peter W. King
Transferred by Peter W. King

Notes

length expanded size cdr WAVE problems fmt ratio filename
22:37.54 239501852 B --- -- ---xx flac 0.5229 300waynehorvitz1998-06-06_csb_t01.flac
14:13.22 150520988 B --- -- ---xx flac 0.5177 300waynehorvitz1998-06-06_csb_t02.flac
16:49.31 178060556 B --- -- ---xx flac 0.5511 300waynehorvitz1998-06-06_csb_t03.flac
10:49.38 114573020 B --- -- ---xx flac 0.3867 300waynehorvitz1998-06-06_csb_t04.flac
64:29.70 682656416 B 0.5062 (4 files)

comment
Reviews

There are no reviews yet. Be the first one to write a review.
SIMILAR ITEMS (based on metadata)
eye
Title
Date Archived
Creator
Wayne Horvitz
by Wayne Horvitz
etree
eye 52
favorite 0
comment 0
Source: Pre-FM > M1
Wayne Horvitz
by Wayne Horvitz
etree
eye 302
favorite 0
comment 2
favoritefavoritefavoritefavoritefavorite ( 2 reviews )
Source: DSBD
Wayne Horvitz
by Wayne Horvitz
etree
eye 115
favorite 0
comment 0
Source: FOB Shure vp88> unknown devices> D8
Wayne Horvitz
by Wayne Horvitz
etree
eye 45
favorite 0
comment 0
Source: FOS: AT822 + mono SBD > Mackie 1202 > M1
Wayne Horvitz
by Wayne Horvitz
etree
eye 116
favorite 0
comment 0
Source: AT 822 (foot of stage) + mono SBD > Mackie 1202 > M1
Wayne Horvitz
by Wayne Horvitz
etree
eye 55
favorite 0
comment 0
Source: Pre-FM > M1
Wayne Horvitz
by Wayne Horvitz
etree
eye 142
favorite 0
comment 0
Source: AT 822 (foot of stage) + mono SBD > Mackie 1202 > M1
Wayne Horvitz
by Wayne Horvitz
etree
eye 68
favorite 0
comment 0
Source: AKG 414TLIIs > Graham Patten DMIC-20 (mics on-stage, set on omni, split about 8' apart)
Wayne Horvitz
by Wayne Horvitz
etree
eye 61
favorite 0
comment 0
Source: AKG 414TLIIS>GP DMIC-20 (mics on stage, split about 4' apart, set on omni)
Wayne Horvitz
by Wayne Horvitz
etree
eye 112
favorite 0
comment 0
Source: AKG 414TLIIs (on stage (well on the floor technically), set on omni, split about 8') > Apogee Mini-ME